David Feinstein – The Healing Power of EFT and Energy Psychology

Download David Feinstein – The Healing Power of EFT and Energy Psychology

Description

Genre: eLearning Video / Psychology, Self Improvement

The program consists of Basic Modules, Embedded Topics, Figures & Charts, and Video Clips–plus a Table of Contents. The set of 17 Basic Modules is the main portion of the program, containing the Interactive Questions and Practice Sessions.

ENERGY PSYCHOLOGY INTERACTIVE

RAPID INTERVENTIONS FOR LASTING CHANGE

by David Feinstein, Ph.D.

in Consultation with Fred P. Gallo, Ph.D., Donna Eden, and

The Energy Psychology Interactive Advisory Board

Version 4.0 2004

AN INTERACTIVE 40-HOUR COURSE FOR MASTERING

THE BASIC CONCEPTS AND TECHNIQUES OF ENERGY PSYCHOLOGY

Designed for Psychotherapists and Other Health Professionals

Involved in the Treatment of Emotional and Behavioral Conditions

Complete name : David Feinstein – Introduction to Energy Psychology Part 1.wmv

Format : Windows Media

File size : 275 MiB

Duration : 1h 44mn

Overall bit rate mode : Constant

Overall bit rate : 368 Kbps

Maximum Overall bit rate : 372 Kbps

Movie name : Introduction to Energy Psychology Part 1

Encoded date : UTC 2008-03-15 10:10:33.140

Video

ID : 1

Format : VC-1

Format profile : [email protected]

Codec ID : WMV3

Codec ID/Info : Windows Media Video 9

Codec ID/Hint : WMV3

Description of the codec : Windows Media Video 9

Duration : 1h 44mn

Bit rate mode : Constant

Bit rate : 300 Kbps

Width : 320 pixels

Height : 240 pixels

Display aspect ratio : 4:3

Frame rate : 29.970 fps

Nominal frame rate : 25.000 fps

Color space : YUV

Chroma subsampling : 4:2:0

Bit depth : 8 bits

Scan type : Progressive

Compression mode : Lossy

Bits/(Pixel*Frame) : 0.130

Stream size : 224 MiB (82%)

Language : English (IE)

Audio

ID : 2

Format : WMA

Format version : Version 2

Codec ID : 161

Codec ID/Info : Windows Media Audio

Description of the codec : Windows Media Audio 9 – 64 kbps, 44 kHz, stereo 1-pass CBR

Duration : 1h 44mn

Bit rate mode : Constant

Bit rate : 64.0 Kbps

Channel(s) : 2 channels

Sampling rate : 44.1 KHz

Bit depth : 16 bits

Stream size : 47.9 MiB (17%)

Language : English (IE)

Download David Feinstein – The Healing Power of EFT and Energy Psychology Part 1

Download David Feinstein – The Healing Power of EFT and Energy Psychology Part 2

Download David Feinstein – The Healing Power of EFT and Energy Psychology Part 3

Download David Feinstein – The Healing Power of EFT and Energy Psychology Part 4

Download David Feinstein – The Healing Power of EFT and Energy Psychology Part 5

Download David Feinstein – The Healing Power of EFT and Energy Psychology Part 6

Watch more